TODO

4K BITRATE

SOFTWARE

TRANSCODE

from:

SonY CyberShot

Format                                   : AVI
Format/Info                              : Audio Video Interleave
File size                                : 3.81 MiB
Duration                                 : 3s 437ms
Overall bit rate                         : 9 304 Kbps
Writing application                      : SONY DSC MJPEG 0100

Video
ID                                       : 0
Format                                   : JPEG
Codec ID                                 : MJPG
Duration                                 : 3s 437ms
Bit rate                                 : 9 209 Kbps
Width                                    : 640 pixels
Height                                   : 480 pixels
Display aspect ratio                     : 4:3
Frame rate                               : 29.970 fps
Color space                              : YUV
Chroma subsampling                       : 4:2:2
Bit depth                                : 8 bits
Compression mode                         : Lossy
Bits/(Pixel*Frame)                       : 1.000
Stream size                              : 3.77 MiB (99%)
Title                                    : SONY DSC MOVIE

Audio
ID                                       : 1
Format                                   : ADPCM
Format profile                           : U-Law
Codec ID                                 : 7
Codec ID/Hint                            : CCITT
Duration                                 : 3s 437ms
Bit rate mode                            : Constant
Bit rate                                 : 88.2 Kbps
Channel(s)                               : 1 channel
Sampling rate                            : 11.025 KHz
Bit depth                                : 8 bits
Stream size                              : 37.0 KiB (1%)
Interleave, duration                     : 491 ms (14.71 video frames)

to:

panasonic

panasonic tx-l32c20e

on the fly video transcoding service ?

ToTest

[[Libre]]

[[Audio]]

APE : [[LossLess]] [[Audio]] [[Codec]] for [[GNU]]/[[Linux]]

http://stommel.tamu.edu/~baum/linux-music.html

apt-get install shntool # multi-purpose tool for manipulating and analyzing WAV files

http://stommel.tamu.edu/~baum/linux-music.html#mac

http://www.monkeysaudio.com/developers.html is Down ?

http://toxygen.net/misc/MAC_SDK_399_Linux.diff

ed2k://|file|MAC_SDK_399.zip|587212|6C3C99439BF1F8E70CE69BE5C6F6305C|/

ToDo

[[Video]] formats and [[Codec]]

Containers / Demux

VPx VP6 VP7 VP8 ...

http://Demoscene.tv

vlc http://213.186.36.129:8000/listen.pls
VLC media player 0.8.2 Janus
[[00000297]] access_http access: Raw-audio server found, nsv demuxer selected
[[00000300]] main decoder error: no suitable decoder module for fourcc `VP61'.
VLC probably does not support this sound or video format.
xine http://213.186.36.129:8000/listen.pls
Can't open library vp6vfw.dll
http://linuxfr.org/2004/04/28/16114.html
dpkg -L w32codecs | awk '{ print " # " $0 }' | grep vfw
# /usr/lib/win32/vp31vfw.dll

http://sik1.oulu.fi:8000/;stream.nsv Down

ed2k://|file|vp6_vfw_codec.exe|1753279|791254a63145f49ae8083bc20c7e44be|

http://www.on2.com/software/vp6_vfw_codec.exe

apt-get install unp orange # [[Debian]]
cabextract vp6_vfw_codec.exe
unshield x Disk1/*.cab
su -c 'cp Disk1/System_DLLs/vp6vfw.dll /usr/local/lib/win32/'

http://www.kyz.uklinux.net/cabextract.php

http://synce.sourceforge.net/synce/unshield.php

[[Windows]]

AC3

The use of a player that supports CUEsheets will enable you to easily switch back and forth between individual tracks.

IMAGE

MISC

MORE

codec.txt · Last modified: 2020/09/08 20:41 (external edit)
 
Except where otherwise noted, content on this wiki is licensed under the following license: CC Attribution-Share Alike 3.0 Unported
Recent changes RSS feed Donate Powered by PHP Valid XHTML 1.0 Valid CSS Driven by DokuWiki